Star War Episode 1 The Phantom Menace 1999 MULTI UHD 4K Blu-Ray x264 DTS-HD 6.1

Producer: George Lucas
Cast:Liam Neeson, Ewan McGregor, Natalie Portman, Jake Lloyd Jake, Ian McDiarmid, Pernilla August, Oliver Ford Davies, Hugh Quarshie, Ahmed Best, Anthony Daniels, Kenny Baker, Frank Oz, Terence Stamp, Brian Blessed, Andy Secombe...
IMDB 6.50
File Size 44.4 GB
Film description
Peaceful and prosperous planet Naboo. The trade federation, not wishing to pay taxes, comes into direct conflict with Queen Amidala, ruling on the planet, which leads to war. On the side of the queen and the republic, two Jedi Knights participate in it: a teacher and a disciple, Qui-Gon-Jin and Obi-Wan Kenobi ...

"Star Wars" is a universe with millions of fans who like not only a lot of races and planets, lightsabers and bright heroes, but also a story. With confidence, we can say that if we consider the whole saga as a whole, then we will get an incredible drama. We will learn how a person can change and what true love can do. But the saga is six films, which, incidentally, though connected with each other, nevertheless each film has its logical end, for which many thanks to the script writer. Movie blu ray in 4k Ultra Hd.

So the first film was shot fourth, after the original trilogy and was the first prequel, which was to tell us how Anakin Skywalker found his friends, or rather how they found him. We also learn how Senator Palpatine became the Supreme Chancellor and watch the battle on Naboo. It seems there is no special event in this part of the saga, but the film can not be called boring, because the viewer gets to know a lot of races and new techniques, and the view of the future has always captivated spectators. Yes, and the fight on lightsabers, we get by the time the best, so that the effects and scenery at the time the film was worthy of a higher ball, the second part of this plus of novelty, certainly will not.

The very idea of making a prequel to the original trilogy already builds the film into a cohort of great, doomed to success, which is supported by a good selection of actors. Liam Nisson and Natalie Portman especially like Liu, but the young Yuen McGregor has not coped with his task so brilliantly, nevertheless it can be attributed to the specifics of the role, the role of the student, the person who does not make decisions himself and is doomed to be in the shadow of his teacher.

Perhaps enough words of joy, that we were given this film. Let's talk about the meaning, about the most ancient sense of the struggle between good and evil, which is clearly traced here, but in this picture there is as yet no drama or character breaking, you can not look at the psychological point of view on anything, nevertheless you enjoy the victories of our heroes and by the way The twists and turns of the plot are present, so I have such a rich stock and heritage, the film, even with flaws, deserves the highest appreciation. I advised to see it, but I know that this film has already been revised several times. Star Wars Episode II Attack Of The Clones 2002
Info:


UHD 4K 2160p / Blu-ray 4K Rip / x264 
English DTS-HDMA 6.1 
French DTS 5.1 
Hindi AC3 
English / French / Spanish / Portuguese
/ Dutch / Finnish / Norvegian/ Swedish
+ Foreign & SDH Subs 

Source : UHD 4K Blu-Ray ripped with HDFury
Format : Matroska
Format version : Version 4 / Version 2
File size : 44.4 GiB
Duration : 2 h 16 min
Overall bit rate : 46.7 Mb/s
Movie name : Star Wars Episode I - The phantom Menace UHD 4K Blu-Ray
Encoded date : UTC 2016-09-15 10:10:40

Video
ID : 1
Format : AVC
Format/Info : Advanced Video Codec
Format profile : Main@L5.1
Format settings, CABAC : Yes
Format settings, ReFrames : 1 frame
Codec ID : V_MPEG4/ISO/AVC
Duration : 2 h 16 min
Bit rate : 40.0 Mb/s
Width : 3 840 pixels
Height : 2 160 pixels
Display aspect ratio : 16:9
Frame rate mode : Constant
Frame rate : 23.976 (24000/1001) FPS
Color space : YUV
Chroma subsampling : 4:2:0
Bit depth : 8 bits
Scan type : Progressive
Bits/(Pixel*Frame) : 0.201
Stream size : 38.0 GiB (86%)
Language : English
Default : Yes
Forced : No
Color range : Limited
Color primaries : BT.709
Transfer characteristics : BT.709
Matrix coefficients : BT.709

Audio #1
ID : 2
Format : DTS
Format/Info : Digital Theater Systems
Format profile : MA / ES Discrete / Core
Mode : 16
Format settings, Endianness : Big
Codec ID : A_DTS
Duration : 2 h 16 min
Bit rate mode : Variable / Constant / Constant
Bit rate : 4 815 kb/s / 1 509 kb/s / 1 509 kb/s
Channel(s) : 7 channels / 7 channels / 6 channels
Channel positions : Front: L C R, Side: L R, Back: C, LFE / Front: L C R, Side: L R, Back: C, LFE / Front: L C R, Side: L R, LFE
Sampling rate : 48.0 kHz
Frame rate : 93.750 FPS (512 spf)
Bit depth : 24 bits
Compression mode : Lossless / Lossy / Lossy
Stream size : 4.58 GiB (10%)
Language : English
Default : No
Forced : No

Audio #2
ID : 3
Format : DTS
Format/Info : Digital Theater Systems
Mode : 16
Format settings, Endianness : Big
Codec ID : A_DTS
Duration : 2 h 16 min
Bit rate mode : Constant
Bit rate : 768 kb/s
Channel(s) : 6 channels
Channel positions : Front: L C R, Side: L R, LFE
Sampling rate : 48.0 kHz
Frame rate : 93.750 FPS (512 spf)
Bit depth : 24 bits
Compression mode : Lossy
Stream size : 748 MiB (2%)
Language : French
Default : No
Forced : No

Audio #3
ID : 4
Format : AC-3
Format/Info : Audio Coding 3
Mode extension : CM (complete main)
Format settings, Endianness : Big
Codec ID : A_AC3
Duration : 2 h 16 min
Bit rate mode : Constant
Bit rate : 192 kb/s
Channel(s) : 2 channels
Channel positions : Front: L R
Sampling rate : 48.0 kHz
Frame rate : 31.250 FPS (1536 spf)
Compression mode : Lossy
Stream size : 187 MiB (0%)
Language : Hindi
Default : Yes
Forced : No

Screenshots of the movie:









File size: 44.4 GB


download 4k movies

Watch the movie trailer Star War Episode 1 The Phantom Menace 1999 MULTI UHD 4K Blu-Ray x264 DTS-HD 6.1
Watch the movie trailer
Comments
  • bowtiesmilelaughingblushsmileyrelaxedsmirk
    heart_eyeskissing_heartkissing_closed_eyesflushedrelievedsatisfiedgrin
    winkstuck_out_tongue_winking_eyestuck_out_tongue_closed_eyesgrinningkissingstuck_out_tonguesleeping
    worriedfrowninganguishedopen_mouthgrimacingconfusedhushed
    expressionlessunamusedsweat_smilesweatdisappointed_relievedwearypensive
    disappointedconfoundedfearfulcold_sweatperseverecrysob
    joyastonishedscreamtired_faceangryragetriumph
    sleepyyummasksunglassesdizzy_faceimpsmiling_imp
    neutral_faceno_mouthinnocent